Главная

По поводу маков.

Доброе время суток.
Есть мак старенький но прикольный L2 есть идея туда поставить Бе.
Как лучше это зделать?
Есть под вин и под лин инсталяхи под ппс не видел, было–бы интересно.

Re: По поводу маков.

гы. я летом беру себе MACMINI с процом G4. Никто не в курсе, туда BeOS встанет и работать будет?

Re: По поводу маков.

Естественно не встанет.

Re: По поводу маков.

2 serga — модели L2 в природе не существует, может быть LC2? На эти маки (на основе процессоров Motorola 68K) BeOS не станет ни за какие коврижки.

2 21h — на Mac Mini BeOS тоже не станет!

2 All — BeOS PPC можно порставить на старые Маки на основе процессоров (IBM PPC 603, 604, 604e) моделей Power Macintosh 5500,6500, 7300, 7500, 7600, 8500, 8600, 9500, 9600 ну и на еще кое–какую экзотику (все эти машины производились с 1996 по 1999 год).

Re: По поводу маков.

только под эмулятором

Re: По поводу маков.

А можно узнать как устанавливать на Мак или ссылку на статью. Заранее благодарен

Re: По поводу маков.

Устанавливать очень просто — для безгемморойной установки нужно иметь мультиплатформенный диск с BeOS 5 Pro или BeOS 4.5 Там три сессии:

1 сессия — ISO 9660 с различными утилитами для Windows и MacOS. Оттуда берем BeOS Launcher и extension для него. BeOS Launcher копируем в любое удобное для нас место на диске c MacOS, а extension кидаем на системную папку MacOS. Да, для запуска BeOS необходимо чтобы версия MacOS была не старше 8.6 (в идеале это должна быть 8.5, так–что на компах с MacOS 9.x не стоит и пытаться пустить BeOS) и был загружен Apple CD/DVD extension.

2 сессия — BFS low–endian там записан BeOS для платформы х86 (писишки).

3 сессия — BFS high–endian там записана BeOS для платформы ррс (Мака).

Теперь насчет установки. В идеале нужно иметь свободный второй винт на который нужно ставить сам BeOS. Если винт в компе один — нужно разбить его хотя бы на 2 раздела (первый загрузочный с MacOS 8.х и второй пустой под BeOS). Запускаем BeOS Launcher и вставляем загрузочный компакт с BeOS'ом (если компакт не успел разогнаться оно предлжит сделать Rescan), должен появится голубой фирменный BeOS–ный фон, ну а дальше уже как на писишке.

На Маке всегда по умолчанию грузится MacOS как раз для решения этого вопроса и придуман тот самый extension о котором я писал раньше, теперь при загрузке MacOS будет выводится окошко с двумя кнопками куда грузится в MacOS или BeOS. Оно ждет 5 сек. для выбора операционки и потом грузится туда куда был сделан выбор при прошлой перезагрузке или прошлом включении компа.

Все!

ЗЫ. BeOS на Маке не поддерживает ни коим образом USB контроллеры и USB устройства, а также работает исключительно с некоторыми видеокартами ATI XClaim (на чипах ATI Rage), Matrox Millenium (I & II), IMS TwinTurbo и встроенными видеокартами Apple. Так что клавиатура и мышь должны быть ADB–шными.

Re: По поводу маков.

Я имею 3 имиджа и записываю через Непо используя CUE:
====
FILE “beos5pro.image.iso” BINARY
TRACK 01 MODE1/2048
INDEX 01 00:00:00
POSTGAP 00:02:00
FILE “beos5pro.part1.iso” BINARY
TRACK 02 MODE1/2048
INDEX 01 00:00:00
POSTGAP 00:02:00
FILE “beos5pro.part2.iso” BINARY
TRACK 03 MODE1/2048
INDEX 01 00:00:00
POSTGAP 00:02:00
====
после прожига Мак его прочтет или нужен не стандартный подход,
На Маке стоит MacOS 8.1 (France), а Launcher — то ЕХЕ–файл — не маковский, а для новечка можно будет поподробнее — так для меня Мак — лес густой — хотя и интересный. Заранее благодарен

Re: По поводу маков.

Образ вроде тот что нужно. Мак должен его прочитать, если вдруг не прочтет — проверь есть ли в папке extensions (которая лежит в системной папке MacOS 8.1) файлик с названием ISO 9660 (ну или что–то около того). Надеюсь диск прочитается без вопросов, так–вот на нем есть папочка “Macintosh” в ней лежит архивчик с этим самым BeOS Launcher'ом и extension'ом для него. Этот архивчик нужно разархивировать и как я уже говорил BeOS Launcher скопировать в любое удобное место на диске с MacOS а extension кинуть на значок системной папки (тот который с маковской рожей), оно само предложит переложить его в папочку расширений — соглашайся. После этого можно смело запускать BeOS Launcher, экран потухнет, затем из точек соберется трехмерный логотип BeOS'а и пойдет загрузка.

Отправить комментарий

Содержание этого поля является приватным и не предназначено к показу.
  • Адреса страниц и электронной почты автоматически преобразуются в ссылки.
  • Allowed HTML tags: <a> <em> <i> <img> <strong> <b> <cite> <code> <ul> <ol> <li> <dl> <dt> <dd>
  • Строки и параграфы переносятся автоматически.

Подробнее о форматировании

CAPTCHA
Введите перечисленные символы, чтобы мы убедились, что вы не робот. Не требуется для зарегистрированных пользователей.
E
i
R
P
y
G
Enter the code without spaces and pay attention to upper/lower case.