Главная

Про Zeta

Ребята, кому удалось закатать болванку и с нее проинсталлиться, пожалуйста, опишите процесс, если можно, подробно. Я, к сожалению, так и сижу с исошником на винте безо всякого толка.

Re: Про Zeta

Если там нет никаких особенностей, то всё просто, как мычание :

1) Лучше используй CD–RW на случай провала.

2) Если это образ загрузочной компашки, то просто прожги её (в Nero или ещё в чём–нибудь) с финализацией и всё.

3) Если она не загрузочная, то почитай статьи о том, что нужно сделать (они на этом форуме, заодно посмотри предыдущие страницы).
Я например записывал из–под Alcohol 120% (Можно и Nero). Делается это так: открываешь файл *.cue (смотри, чтобы все образы совпадали по именам и были в одном месте) и всё, есть более сложный способ с записью в два прохода или записывай из–под BeOS — там кидаешь 2 трека (дискету и дистрибутив) и записываешь.

Re: Про Zeta

Писал исошник Нерой. Загружался с диска, загорались все иконки и на этом все. А в сейфмоде пишется: Вставьте CD с Zeta.
Никакого cue нету, bootimage в исошнике видно, а вот дистриба я разглядеть не могу.
При этом с другими BeOS при записи болванок не было никаких трудностей отродясь.

Re: Про Zeta

Какой объём у бутимаги? Если около 1,4 мега, то это загр. дискета и её надо писать первым треком. Проще через cue–файл. если у тебя его нет, то сделай его сам. Это обычный текстовый файл с этим расширением. Вот его содержимое (подправь названия образов):
--------------------------------–
FILE “floppycd.img” BINARY
TRACK 01 MODE1/2048
INDEX 01 00:00:00
POSTGAP 00:02:00
FILE “beos.iso” BINARY
TRACK 02 MODE1/2048
INDEX 01 00:00:00
POSTGAP 00:02:00
-------------------------------–
копируй только текст, без “--–".
Дистриб — это и есть *.ISO

Re: Про Zeta

Даже .cue не помогает,блин.
Система постоянно обращается к флопаку.
Видать ишшо и дискетту надо сделать какую–то…

Re: Про Zeta

v obraze pri pomoshi cdrwin kopiruesh s sektora 1055 po 354486,sohranyaesh b iso.iz osnovnogo obraza pishesh boot.img na disketu.dalshe kak komy nravitsa,hochesh s diskety hochesh pishesh zagruzochnyi disk

Re: Про Zeta

Ребята, кончились проблемы. Вот cue файлик для записи ISO безо всякого шаманства и языческих плясок. Пишется на раз. И на первый взгляд мне Zeta понравилась. Dano — это ее эмбрион, зародыш. Их даже сравнивать нельзя. Теперь я уже не думаю, что Be сможет умереть.

Re: Про Zeta

Ребята, кончились проблемы. Вот cue файлик для записи ISO безо всякого шаманства и языческих плясок. Пишется на раз. И на первый взгляд мне Zeta понравилась. Dano — это ее эмбрион, зародыш. Их даже сравнивать нельзя. Теперь я уже не думаю, что Be сможет умереть.

FILE “Yellowtab_Zeta_BeOS_RC1.iso” BINARY

REM SESSION 01 ; Not supported by other applications (*)
TRACK 01 MODE1/2048
INDEX 01 00:00:00
REM MSF: 00:00:00 = LBA: 0
TRACK 02 MODE1/2048
INDEX 01 00:14:05
REM MSF: 00:14:05 = LBA: 1055

REM (*) SESSION directives are unfortunately not properly supported
REM 'out there'. IsoBuster however supports them !

Отправить комментарий

Содержание этого поля является приватным и не предназначено к показу.
  • Адреса страниц и электронной почты автоматически преобразуются в ссылки.
  • Allowed HTML tags: <a> <em> <i> <img> <strong> <b> <cite> <code> <ul> <ol> <li> <dl> <dt> <dd>
  • Строки и параграфы переносятся автоматически.

Подробнее о форматировании

CAPTCHA
Введите перечисленные символы, чтобы мы убедились, что вы не робот. Не требуется для зарегистрированных пользователей.
v
j
D
n
i
2
Enter the code without spaces and pay attention to upper/lower case.